Wishful Drinking 2010 Carrie Fisher 1080p WEBRip DD+5 1 HEVC x265 sharpysword
(Log in to rate it)
seeders: 11
leechers: 7
updated:
Added by sharpysword09 in Movies ยป Documentary
Torrent verified. Downloaded 2 times.

  • Movie: Wishful Drinking
  • Rated: TV-MA
  • Year: 2010
  • Release date: 12 Dec 2010
  • Genres: Documentary, Comedy
  • IMDb ID: tt1705977
  • IMDb rating: 7.5 (1,123 votes)
  • Director: Fenton Bailey, Randy Barbato
  • Writers: Carrie Fisher, Joshua Ravetch
  • Language: English
Cast: Carrie Fisher, Eddie Fisher, Harry Karl, Debbie Reynolds
Summary:

Hollywood icon Carrie Fisher tells her raw and intoxicating true story in this documentary based on her hit stage production. Touching on stardom, mental illness, addiction and more, the ...

 
Wishful Drinking 2010 Carrie Fisher 1080p WEBRip DD+5 1 HEVC x265 sharpysword (Size:1.59 GB)
  Wishful.Drinking.2010.1080p.WEBRip.DD+5.1.HEVC.x265.sharpysword.mkv 1.59 GB

Description




Screenshot







Hollywood icon Carrie Fisher tells her raw and intoxicating true story in this documentary based on her hit stage production.



Quote:

Duration: 01:15:52.05, start: 0.000000, bitrate: 3002 kb/s
   Stream #0:0: Video: hevc (Main), yuv420p(tv), 1920x1080 [SAR 1:1 DAR 16:9], 25 fps, 25 tbr, 1k tbn, 25 tbc (default)
   Metadata:
     BPS             : 3595310
     BPS-eng         : 3595310
     ENCODER         : Lavc57.48.101 libx265
     DURATION-eng    : 01:15:52.006000000
   

   Stream #0:1: Audio: eac3, 48000 Hz, 5.1(side), fltp, 640 kb/s (default)



Top 5 Related Torrents
torrent nameSizeAgeSEEDLEECH
0
1.59 GB 11-01-2017 14:40:1411 7
0
1.55 GB 31-12-2016 01:58:585 7





Latest Torrents