Walesa Man of Hope 2013 WebRip x264-MCTV
(Log in to rate it)
seeders: 14
leechers: 13
updated:
Added by Mulva1989 in Movies » Other
Torrent verified. Downloaded 0 times.


Walesa Man of Hope 2013 WebRip x264-MCTV (Size:650.26 MB)
  English.srt 4.91 kB
  MulvaCodedTV.jpg 30.31 kB
  Walesa.Man.of.Hope.2013.WebRip.x264-MCTV.mp4 650.23 MB

Description


Walesa Man of Hope 2013 WebRip x264-MCTV
https://www.imdb.com/title/tt2113820

Walesa: Man of Hope
At the Gdansk shipyards, an uprising in the early 1980s is bolstered by the appearance of Lech Walesa, an electrician now gaining a reputation as an inspirational speaker.

English subtitles included

Screenshots
Click to enlarge





Format                      : MPEG-4
Format profile              : Base Media
Codec ID                    : isom (isom/avc1)
File size                   : 650 MiB
Duration                    : 1 h 54 min
Overall bit rate mode       : Variable
Overall bit rate            : 796 kb/s
Encoded date                : UTC 2017-01-11 15:45:48
Tagged date                 : UTC 2017-01-11 15:45:48

Video
ID                          : 1
Format                      : AVC
Format/Info                 : Advanced Video Codec
Format profile              : High@L3
Format settings, CABAC      : Yes
Format settings, ReFrames   : 8 frames
Codec ID                    : avc1
Codec ID/Info               : Advanced Video Coding
Duration                    : 1 h 54 min
Bit rate                    : 696 kb/s
Maximum bit rate            : 3 059 kb/s
Width                       : 720 pixels
Height                      : 304 pixels
Display aspect ratio        : 2.35:1
Frame rate mode             : Constant
Frame rate                  : 25.000 FPS
Color space                 : YUV
Chroma subsampling          : 4:2:0
Bit depth                   : 8 bits
Scan type                   : Progressive
Bits/(Pixel*Frame)          : 0.127
Stream size                 : 569 MiB (87%)
Writing library             : x264 core 148 r2705 3f5ed56
Encoding settings           : cabac=1 / ref=8 / deblock=1:0:0 / analyse=0x3:0x113 / me=umh / subme=9 / psy=1 / psy_rd=1.00:0.00 / mixed_ref=1 / me_range=24 / chroma_me=1 / trellis=1 / 8x8dct=1 / cqm=0 / deadzone=21,11 / fast_pskip=1 / chroma_qp_offset=-2 / threads=6 / lookahead_threads=1 / sliced_threads=0 / nr=0 / decimate=1 / interlaced=0 / bluray_compat=0 / constrained_intra=0 / bframes=5 / b_pyramid=2 / b_adapt=2 / b_bias=0 / direct=3 / weightb=1 / open_gop=0 / weightp=2 / keyint=250 / keyint_min=25 / scenecut=40 / intra_refresh=0 / rc_lookahead=60 / rc=crf / mbtree=1 / crf=21.0 / qcomp=0.60 / qpmin=0 / qpmax=69 / qpstep=4 / ip_ratio=1.40 / aq=2:1.00
Encoded date                : UTC 2017-01-11 15:45:48
Tagged date                 : UTC 2017-01-11 15:45:59

Audio
ID                          : 2
Format                      : AAC
Format/Info                 : Advanced Audio Codec
Format profile              : LC
Codec ID                    : 40
Duration                    : 1 h 54 min
Bit rate mode               : Variable
Bit rate                    : 96.0 kb/s
Maximum bit rate            : 110 kb/s
Channel(s)                  : 2 channels
Channel positions           : Front: L R
Sampling rate               : 48.0 kHz
Frame rate                  : 46.875 FPS (1024 spf)
Compression mode            : Lossy
Stream size                 : 78.4 MiB (12%)
Title                       : BBC.Walesa.Man.of.Hope.2014.WebRip.x264-MCTV.aac#audio - Imported with GPAC 0.5.0-rev
Encoded date                : UTC 2017-01-11 15:45:56
Tagged date                 : UTC 2017-01-11 15:45:59

Text
ID                          : 3
Format                      : Timed Text
Muxing mode                 : sbtl
Codec ID                    : tx3g
Duration                    : 1 h 52 min
Bit rate mode               : Variable
Bit rate                    : 2 b/s
Stream size                 : 1.96 KiB (0%)
Title                       : BBC.Walesa.Man.of.Hope.2014.WebRip.x264-MCTV.srt:hdlr=sbtl:lang=en:group=2:layer=-1 - Imported with GPAC 0.5.0-rev
Language                    : English
Default                     : Yes
Forced                      : No
Alternate group             : 2
Encoded date                : UTC 2017-01-11 15:45:59
Tagged date                 : UTC 2017-01-11 15:45:59