Author Topic: RB58 releases  (Read 2325 times)

RedBaron58  840

  • Staff
  • Posts: 604
  • Rate: 236
    • View Profile
Re: RB58 releases
« Reply #15 on: November 24, 2016, 01:20:45 am »
Ordinary Lies S02 x264 mp4

https://www.imdb.com/title/tt4273282/

Thank you for your kind comments and feedback on my other torrents, your feedback is welcome.


About the Series:
Coopers Outdoors, a Sports Goods Company based in Cardiff, has a number of workers who each
hold a dark secret. As each episode unfolds, and each characters story is revealed,
it becomes clear just how fast secrets can be revealed and the shocking aftermaths that can follow.



Torrent: Ordinary Lies Season 2 x264 RB58
« Last Edit: January 20, 2017, 10:13:58 pm by RedBaron58 »

RedBaron58  840

  • Staff
  • Posts: 604
  • Rate: 236
    • View Profile
Re: RB58 releases
« Reply #16 on: November 28, 2016, 02:29:45 am »
Waking the Dead S01-S09 DVDrip x264 mp4

https://www.imdb.com/title/tt0259733/

About the Series:
Detective Superintendent Peter Boyd is the leader of a police team which investigates
unsolved murders using modern technology.
Starring  Trevor Eve, Sue Johnston and Wil Johnson.
 

Torrent: Waking the Dead Season 1 x264 RB58 3.92 GB
 

Torrent: Waking the Dead Season 2 x264 RB58 3.24GB
 

Torrent: Waking the Dead Season 3 x264 RB58 3.24GB
 

Torrent: Waking the Dead Season 4 x264 RB58 4.30GB
 

Torrent: Waking the Dead Season 5 x264 RB58 4.88GB
 

Torrent: Waking the Dead Season 6 x264 RB58 4.82GB
 

Torrent: Waking the Dead Season 7 x264 RB58   4.21GB
 

Torrent: Waking the Dead Season 8 x264 RB58 2.82GB
 

Torrent: Waking the Dead Season 9 x264 RB58 4.12GB Latest Release

Hope you enjoy guys :smiley:
« Last Edit: January 22, 2017, 02:23:52 am by RedBaron58 »

RedBaron58  840

  • Staff
  • Posts: 604
  • Rate: 236
    • View Profile
Re: RB58 releases
« Reply #17 on: December 01, 2016, 02:11:56 am »
The Missing Season 2 x264 mp4
 
https://www.imdb.com/title/tt3877200/

Thank you for your kind comments and feedback on my other torrents, your feedback is welcome.


About the Series:
The Missing returns with Detective Julien Baptiste pursuing the case of Alice Webster.
The series begins with a dishevelled, twenty-something young woman walks into the German
town from where she was abducted eleven years earlier.
Starring Tcheky Karyo, David Morrissey and Keeley Hawes

I hope you enjoy.

Torrent: The Missing Season 2


Technical: (All episodes are encoded to the same settings)

General
Complete name                            : I:\The Missing S02\The Missing S02E01 - Come Home x264 RB58.mp4
Format                                   : MPEG-4
Format profile                           : Base Media
Codec ID                                 : isom
File size                                : 637 MiB
Duration                                 : 58mn 55s
Overall bit rate mode                    : Variable
Overall bit rate                         : 1 511 Kbps
Writing application                      : Lavf54.63.104

Video
ID                                       : 1
Format                                   : AVC
Format/Info                              : Advanced Video Codec
Format profile                           : High@L3
Format settings, CABAC                   : Yes
Format settings, ReFrames                : 4 frames
Codec ID                                 : avc1
Codec ID/Info                            : Advanced Video Coding
Duration                                 : 58mn 55s
Bit rate                                 : 1 400 Kbps
Width                                    : 832 pixels
Height                                   : 468 pixels
Display aspect ratio                     : 16:9
Frame rate mode                          : Constant
Frame rate                               : 25.000 fps
Color space                              : YUV
Chroma subsampling                       : 4:2:0
Bit depth                                : 8 bits
Scan type                                : Progressive
Bits/(Pixel*Frame)                       : 0.144
Stream size                              : 586 MiB (92%)
Writing library                          : x264 core 123 r2189 35cf912
Encoding settings                        : cabac=1 / ref=3 / deblock=1:0:0

Audio
ID                                       : 2
Format                                   : AAC
Format/Info                              : Advanced Audio Codec
Format profile                           : LC
Codec ID                                 : 40
Duration                                 : 58mn 55s
Bit rate mode                            : Variable
Bit rate                                 : 112 Kbps
Maximum bit rate                         : 128 Kbps
Channel(s)                               : 2 channels
Channel positions                        : Front: L R
Sampling rate                            : 48.0 KHz
Compression mode                         : Lossy
Stream size                              : 47.2 MiB (7%)
Language                                 : English
« Last Edit: January 22, 2017, 02:39:52 am by RedBaron58 »

RedBaron58  840

  • Staff
  • Posts: 604
  • Rate: 236
    • View Profile
Re: RB58 releases
« Reply #18 on: December 02, 2016, 01:17:08 pm »
Jack Taylor S03 x264 mp4

Ep1. Blood Cross - https://www.imdb.com/title/tt5699230/ (imdb incorrectly names this as "Cross")
 
Ep2. Nemesis - https://www.imdb.com/title/tt5699216/ (imdb incorrectly names this as "Headstone")

Ep3. Purgatory - https://www.imdb.com/title/tt6168286/

Thank you for your kind comments and feedback on my other torrents, your feedback is welcome.


About the Series:
Iain Glen returns as the Galway private detective. Things are a little better for Jack,
he was bequeathed some property in a will.
Cody has recovered from his shooting ordeal but it seems he is moving to America.
However while doing a favour for Garda Kate, it is not too long before Jack gets
embroiled in a murder investigation.
Three 90 minutes episodes as listed above

Torrent: Jack Taylor Season 3 x264 RB58
I hope you enjoy.
 


Technical: (All episodes are encoded to the same settings)

General
Complete name                            : I:\Jack Taylor S03\Jack Taylor S03E01 - Blood Cross x264 RB58.mp4
Format                                   : MPEG-4
Format profile                           : Base Media
Codec ID                                 : isom
File size                                : 972 MiB
Duration                                 : 1h 29mn
Overall bit rate                         : 1 521 Kbps
Writing application                      : Lavf54.63.104

Video
ID                                       : 1
Format                                   : AVC
Format/Info                              : Advanced Video Codec
Format profile                           : High@L3
Format settings, CABAC                   : Yes
Format settings, ReFrames                : 4 frames
Codec ID                                 : avc1
Codec ID/Info                            : Advanced Video Coding
Duration                                 : 1h 29mn
Bit rate                                 : 1 400 Kbps
Width                                    : 832 pixels
Height                                   : 468 pixels
Display aspect ratio                     : 16:9
Frame rate mode                          : Constant
Frame rate                               : 25.000 fps
Color space                              : YUV
Chroma subsampling                       : 4:2:0
Bit depth                                : 8 bits
Scan type                                : Progressive
Bits/(Pixel*Frame)                       : 0.144
Stream size                              : 894 MiB (92%)
Writing library                          : x264 core 123 r2189 35cf912
Encoding settings                        : cabac=1 / ref=3 / deblock=1:0:0

Audio
ID                                       : 2
Format                                   : AAC
Format/Info                              : Advanced Audio Codec
Format profile                           : LC
Codec ID                                 : 40
Duration                                 : 1h 29mn
Bit rate mode                            : Constant
Bit rate                                 : 113 Kbps
Channel(s)                               : 2 channels
Channel positions                        : Front: L R
Sampling rate                            : 48.0 KHz
Compression mode                         : Lossy
Stream size                              : 71.9 MiB (7%)
Language                                 : English
« Last Edit: January 22, 2017, 04:18:19 pm by RedBaron58 »

Barishnikov  428

  • Torrent Helper
  • Posts: 243
  • Rate: 185
    • View Profile
Re: RB58 releases
« Reply #19 on: December 03, 2016, 01:06:27 pm »
great stuff mate...  :thumbsup:

RedBaron58  840

  • Staff
  • Posts: 604
  • Rate: 236
    • View Profile
Re: RB58 releases
« Reply #20 on: December 04, 2016, 02:52:56 am »
The Coroner S02 x264 mp4

https://www.imdb.com/title/tt5194866/
 

 
your feedback is welcome.

Torrent: The Coroner Season 2 x264 RB58
About the Series:
A solicitor returns to the seaside town she left as a teenager to take up the post of coroner,
becoming an advocate for the dead as she investigates sudden, violent or unexplained deaths.
Starring Claire Goose and Matt Bardock
Episode 1: The Drop Zone
Episode 2: Perfectly Formed
Episode 3: Those in Peril
Episode 4: The Beast of Lighthaven
Episode 5: The Captain's Pipe
Episode 6: Life
Episode 7: Perfect Pair
Episode 8: The Foxby Affair
Episode 9: Pieces of Eight
Episode 10: Crash

I hope you enjoy.

Technical: (all episodes encoded to the same settings)

General
Complete name                            : I:\The Coroner S02\The Coroner S02E01 - The Drop Zone x264 RB58.mp4
Format                                   : MPEG-4
Format profile                           : Base Media
Codec ID                                 : isom
File size                                : 485 MiB
Duration                                 : 44mn 24s
Overall bit rate                         : 1 528 Kbps
Writing application                      : Lavf54.63.104

Video
ID                                       : 1
Format                                   : AVC
Format/Info                              : Advanced Video Codec
Format profile                           : High@L3
Format settings, CABAC                   : Yes
Format settings, ReFrames                : 4 frames
Codec ID                                 : avc1
Codec ID/Info                            : Advanced Video Coding
Duration                                 : 44mn 24s
Bit rate                                 : 1 400 Kbps
Width                                    : 832 pixels
Height                                   : 468 pixels
Display aspect ratio                     : 16:9
Frame rate mode                          : Constant
Frame rate                               : 25.000 fps
Color space                              : YUV
Chroma subsampling                       : 4:2:0
Bit depth                                : 8 bits
Scan type                                : Progressive
Bits/(Pixel*Frame)                       : 0.144
Stream size                              : 445 MiB (92%)
Writing library                          : x264 core 123 r2189 35cf912
Encoding settings                        : cabac=1 / ref=3 / deblock=1:0:0

Audio
ID                                       : 2
Format                                   : AAC
Format/Info                              : Advanced Audio Codec
Format profile                           : LC
Codec ID                                 : 40
Duration                                 : 44mn 24s
Bit rate mode                            : Constant
Bit rate                                 : 120 Kbps
Channel(s)                               : 2 channels
Channel positions                        : Front: L R
Sampling rate                            : 48.0 KHz
Compression mode                         : Lossy
Stream size                              : 38.1 MiB (8%)
« Last Edit: January 22, 2017, 04:15:51 pm by RedBaron58 »