Mary Poppins Returns - Il ritorno di Mary Poppins (2018) 720p H264 italian english Ac3-5 1 sub eng-MIRCrew

seeders: 17 leechers: 1 updated: 2 days ago
Added on by robbyrs 2,106 in Movies > HD
Torrent verified. Downloaded 0 times.
Infohash 3f0e5da15114f5d00ad17964d601ea2858cd7757
0
0
Cover
Mary Poppins Returns (2018) PG
Runtime 130 min

Video Other — 720p — Unknown
Audio English

Directed by Rob Marshall
Written by P.L. Travers (based upon the "Mary Poppins" stories by), David Magee (screen story by), Rob Marshall (screen story by), John DeLuca (screen story by), David Magee (screenplay by)

Genres Comedy, Family, Fantasy, Musical

Decades after her original visit, the magical nanny returns to help the Banks siblings and Michael's children through a difficult time in their lives.

Also available as: 720p

Description





General
Unique ID                                : 241589056680294667114191881769394775576 (0xB5C05C1F1BE243EF8F2A0BFE9B0E2618)
Complete name                            : Mary Poppins Returns (2018).720p.ita.eng.sub.eng-MIRCrewMary Poppins Returns (2018).720p.ita.eng.sub.eng-MIRCrew.mkv
Format                                   : Matroska
Format version                           : Version 2
File size                                : 2.64 GiB
Duration                                 : 2h 10mn
Overall bit rate                         : 2 900 Kbps
Movie name                               : MIRCrew
Encoded date                             : UTC 2019-03-12T20:18:50Z
Writing application                      : mkvmerge v5.4.0 ('Piper') built on Mar 10 2012 13:34:39
Writing library                          : Lavf55.12.0

Video
ID                                       : 1
Format                                   : AVC
Format/Info                              : Advanced Video Codec
Format profile                           : Main@L4.1
Format settings, CABAC                   : Yes
Format settings, ReFrames                : 4 frames
Codec ID                                 : V_MPEG4/ISO/AVC
Duration                                 : 2h 10mn
Bit rate                                 : 2 000 Kbps
Width                                    : 1 280 pixels
Height                                   : 528 pixels
Display aspect ratio                     : 2.40:1
Frame rate                               : 23.976 fps
Color space                              : YUV
Chroma subsampling                       : 4:2:0
Bit depth                                : 8 bits
Scan type                                : Progressive
Bits/(Pixel*Frame)                       : 0.123
Stream size                              : 1.77 GiB (67%)
Title                                    : MIRCrew
Writing library                          : x264 core 142 r2479 dd79a61
Encoding settings                        : cabac=1 / ref=1 / deblock=1:-1:-1 / analyse=0x1:0x111 / me=hex / subme=2 / psy=1 / psy_rd=1.00:0.15 / mixed_ref=0 / me_range=16 / chroma_me=1 / trellis=0 / 8x8dct=0 / cqm=0 / deadzone=21,11 / fast_pskip=1 / chroma_qp_offset=0 / threads=6 / lookahead_threads=2 / sliced_threads=0 / nr=0 / decimate=1 / interlaced=0 / bluray_compat=0 / constrained_intra=0 / bframes=3 / b_pyramid=2 / b_adapt=1 / b_bias=0 / direct=1 / weightb=1 / open_gop=0 / weightp=1 / keyint=240 / keyint_min=24 / scenecut=40 / intra_refresh=0 / rc_lookahead=10 / rc=abr / mbtree=1 / bitrate=2000 / ratetol=1.0 / qcomp=0.60 / qpmin=0 / qpmax=69 / qpstep=4 / vbv_maxrate=50000 / vbv_bufsize=62500 / nal_hrd=none / filler=0 / ip_ratio=1.40 / aq=1:1.00
Language                                 : Italian
Default                                  : Yes
Forced                                   : No
Color primaries                          : BT.709-5, BT.1361, IEC 61966-2-4, SMPTE RP177
Transfer characteristics                 : BT.709-5, BT.1361
Matrix coefficients                      : BT.709-5, BT.1361, IEC 61966-2-4 709, SMPTE RP177

Audio #1
ID                                       : 2
Format                                   : AC-3
Format/Info                              : Audio Coding 3
Mode extension                           : CM (complete main)
Codec ID                                 : A_AC3
Duration                                 : 2h 10mn
Bit rate mode                            : Constant
Bit rate                                 : 448 Kbps
Channel(s)                               : 6 channels
Channel positions                        : Front: L C R, Side: L R, LFE
Sampling rate                            : 48.0 KHz
Bit depth                                : 16 bits
Compression mode                         : Lossy
Delay relative to video                  : -83ms
Stream size                              : 418 MiB (15%)
Title                                    : Ita Ac3 5.1
Language                                 : Italian
Default                                  : No
Forced                                   : No

Audio #2
ID                                       : 3
Format                                   : AC-3
Format/Info                              : Audio Coding 3
Mode extension                           : CM (complete main)
Codec ID                                 : A_AC3
Duration                                 : 2h 10mn
Bit rate mode                            : Constant
Bit rate                                 : 448 Kbps
Channel(s)                               : 6 channels
Channel positions                        : Front: L C R, Side: L R, LFE
Sampling rate                            : 48.0 KHz
Bit depth                                : 16 bits
Compression mode                         : Lossy
Delay relative to video                  : -5ms
Stream size                              : 418 MiB (15%)
Title                                    : Eng Ac3 5.1
Language                                 : English
Default                                  : No
Forced                                   : No

Menu
00:00:00.000                             : :00:00:00.000
00:06:38.272                             : :00:06:38.064
00:15:22.171                             : :00:15:22.046
00:19:18.157                             : :00:19:18.032
00:26:02.018                             : :00:26:01.894
00:33:10.530                             : :00:33:10.405
00:39:05.551                             : :00:39:05.426
00:46:11.477                             : :00:46:11.352
00:57:34.159                             : :00:57:34.034
01:06:14.512                             : :01:06:14.387
01:15:55.926                             : :01:15:55.801
01:21:51.490                             : :01:21:51.365
01:32:18.324                             : :01:32:18.199
01:36:29.950                             : :01:36:29.826
01:53:58.456                             : :01:53:58.331
02:03:48.129                             : :02:03:47.962


Sharing Widget

To share this torrent inserting the provided BBCode into comments, status messages, forum posts or your signature.