Grey’s Anatomy Season 15 revittony

seeders: 8 leechers: 9 updated: 1 day ago
Added on by revittony 672 in TV > Other
Torrent verified. Downloaded 938 times.
Infohash c808052cbf012cb2c3a5cad3e0a9654bb0c02ed5
0
0
  • Grey's Anatomy Season 15 (Size: 6.19 GB)
      • S15E01 With a Wonder and a Wild Desire.mkv
      320.26 MB
      • Original File names.txt
      1.36 kB
      • Media info.txt
      1.36 kB
      • S15E02 Broken Together.mkv
      263.10 MB
      • S15E03 Gut Feeling.mkv
      279.00 MB
      • S15E04 Momma Knows Best.mkv
      271.57 MB
      • S15E05 Everyday Angel.mkv
      285.34 MB
      • S15E06 Flowers Grow Out of My Grave.mkv
      262.01 MB
      • S15E07 Anybody Have a Map.mkv
      243.07 MB
      • S15E08 Blowin' in the Wind.mkv
      238.64 MB
      • S15E09 Shelter From the Storm.mkv
      237.40 MB
      • S15E10 Help, I'm Alive.mkv
      237.20 MB
      • S15E11 The Winner Takes It All.mkv
      247.26 MB
      • S15E12 Girlfriend in a Coma.mkv
      279.23 MB
      • S15E13 I Walk the Line.mkv
      263.23 MB
      • S15E14 I Want a New Drug.mkv
      237.50 MB
      • S15E15 We Didn't Start the Fire.mkv
      228.83 MB
      • S15E16 Blood and Water.mkv
      248.21 MB
      • S15E17 And Dream of Sheep.mkv
      228.85 MB
      • S15E18 Add It Up.mkv
      227.88 MB
      • S15E19 Silent All These Years.mkv
      255.37 MB
      • S15E20 The Whole Package.mkv
      246.14 MB
      • S15E21 Good Shepherd.mkv
      227.77 MB
      • S15E22 Head Over High Heels.mkv
      230.28 MB
      • S15E23 What I Did for Love.mkv
      241.70 MB
      • S15E24 Drawn to the Blood.mkv
      270.76 MB
      • S15E25 Jump Into The Fog.mkv
      264.55 MB
    • Files view Limit 50 — Current Torrent have 27 files

Description

https://www.imdb.com/title/tt0413573



Format : Matroska
Format version : Version 4
Overall bit rate : 1 059 kb/s
Encoded date : UTC 2018-09-27 02:43:21
Writing application : mkvmerge v8.8.0 ('Wind at my back') 64bit
Writing library : libebml v1.3.3 + libmatroska v1.4.4

Video
ID : 1
Format : AVC
Format/Info : Advanced Video Codec
Format profile : High@L3.1
Format settings : CABAC / 5 Ref Frames
Format settings, CABAC : Yes
Format settings, Reference frames : 5 frames
Codec ID : V_MPEG4/ISO/AVC
Duration : 42 min 16 s
Bit rate : 953 kb/s
Width : 720 pixels
Height : 404 pixels
Display aspect ratio : 16:9
Frame rate mode : Constant
Frame rate : 23.976 (24000/1001) FPS
Color space : YUV
Chroma subsampling : 4:2:0
Bit depth : 8 bits
Scan type : Progressive
Bits/(Pixel*Frame) : 0.137
Stream size : 288 MiB (90%)
Writing library : x264 core 157 r2935 545de2f
Forced : No
Color range : Limited
Matrix coefficients : BT.709

Audio
ID : 2
Format : AAC LC
Format/Info : Advanced Audio Codec Low Complexity
Codec ID : A_AAC-2
Duration : 42 min 16 s
Bit rate : 104 kb/s
Channel(s) : 2 channels
Channel layout : L R
Sampling rate : 48.0 kHz
Frame rate : 46.875 FPS (1024 SPF)
Compression mode : Lossy
Delay relative to video : 20 ms
Stream size : 31.5 MiB (10%)
Default : Yes
Forced : No


Sharing Widget

To share this torrent inserting the provided BBCode into comments, status messages, forum posts or your signature.