The Last Warrior 2018 UNCENSORED Movies BRRip x264 5 1 with Sample ☻rDX☻

seeders: 4 leechers: 0 updated: 13 days ago
Added on by teamrDX 12,340 in Movies > Other
Torrent verified. Downloaded 6 times.
Infohash 34aa3a89b75c9ff8b8ddf17adcf24566dd3e0e9f
0
0
Cover
The Scythian (2018) Not Rated
Runtime 105 min

Video Blu-ray — — x264
Audio English

Directed by Rustam Mosafir
Written by Vadim Golovanov, Rustam Mosafir

Genres Action, Drama, Fantasy

These are times when one civilization is replacing another. A new era is about to begin in Central Eurasia. Scythians, the proud warriors, are all but gone. The few of their descendants ...

Also available as: Blu-ray Web-DL Web-Rip Cam x264

Description

18+ The Last Warrior 2018 UNCENSORED Movies BRRip x264 5.1 with Sample ☻rDX☻

Screen Shots

https://iphonehosting.eu/2018/8/medicine/1.html
https://iphonehosting.eu/2018/8/medicine/2.html
https://iphonehosting.eu/2018/8/medicine/3.html
https://iphonehosting.eu/2018/8/medicine/4.html
https://iphonehosting.eu/2018/8/medicine/5.html


File size                                : 839 MiB
Duration                                 : 1 h 44 min
Overall bit rate mode                    : Constant
Overall bit rate                         : 1 122 kb/s
Movie name                               : 18+ The Last Warrior 2018 UNCENSORED Movies BRRip x264 5.1 ☻rDX☻

Video
ID                                       : 2
Format                                   : AVC
Format/Info                              : Advanced Video Codec
Format profile                           : Main@L3
Format settings, CABAC                   : Yes
Format settings, ReFrames                : 2 frames
Format settings, GOP                     : M=1, N=12
Codec ID                                 : V_MPEG4/ISO/AVC
Duration                                 : 1 h 44 min
Bit rate mode                            : Constant
Bit rate                                 : 675 kb/s
Width                                    : 720 pixels
Height                                   : 304 pixels
Display aspect ratio                     : 2.35:1
Frame rate mode                          : Constant
Frame rate                               : 23.976 FPS
Color space                              : YUV
Chroma subsampling                       : 4:2:0
Bit depth                                : 8 bits
Scan type                                : Progressive
Bits/(Pixel*Frame)                       : 0.129
Stream size                              : 487 MiB (58%)
Title                                    : ☻rDX☻
Default                                  : Yes
Forced                                   : No

Audio
ID                                       : 1
Format                                   : AC-3
Format/Info                              : Audio Coding 3
Mode extension                           : CM (complete main)
Format settings, Endianness              : Big
Codec ID                                 : A_AC3
Duration                                 : 1 h 44 min
Bit rate mode                            : Constant
Bit rate                                 : 448 kb/s
Channel(s)                               : 6 channels
Channel positions                        : Front: L C R, Side: L R, LFE
Sampling rate                            : 48.0 kHz
Frame rate                               : 31.250 FPS (1536 spf)
Bit depth                                : 16 bits
Compression mode                         : Lossy
Stream size                              : 335 MiB (40%)
Title                                    : ☻rDX☻
Default                                  : Yes
Forced                                   : No


Sharing Widget

To share this torrent inserting the provided BBCode into comments, status messages, forum posts or your signature.