Viking Destiny 2018 UNCENSORED Movies BRRip x264 5 1 with Sample ☻rDX☻

seeders: 1 leechers: 0 updated: 5 days ago
Added on by teamrDX 12,340 in Movies > Other
Torrent verified. Downloaded 2 times.
Infohash 42cbe6df060cd62bcd76581dd06d8344f39c6e99
0
0
Cover
Viking Destiny (2018) R
Runtime 91 min

Video Blu-ray — — x264
Audio English

Directed by David L.G. Hughes
Written by David L.G. Hughes

Genres Action, Adventure, Fantasy

A Viking Princess is forced to flee her kingdom after being framed for the murder of her father, the King. Under the guidance of the God Odin, she travels the world gaining wisdom and building the army she needs to win back her throne.

Also available as: Blu-ray Web-DL Web-Rip Cam x264

Description

18+ Viking Destiny 2018 UNCENSORED Movies BRRip x264 5.1 with Sample ☻rDX☻

Screen Shots

https://iphonehosting.eu/2018/8/electricity/1.html
https://iphonehosting.eu/2018/8/electricity/2.html
https://iphonehosting.eu/2018/8/electricity/3.html
https://iphonehosting.eu/2018/8/electricity/4.html
https://iphonehosting.eu/2018/8/electricity/5.html


File size                                : 839 MiB
Duration                                 : 1 h 30 min
Overall bit rate mode                    : Constant
Overall bit rate                         : 1 292 kb/s
Movie name                               : 18+ Viking Destiny 2018 UNCENSORED Movies BRRip x264 5.1 ☻rDX☻

Video
ID                                       : 2
Format                                   : AVC
Format/Info                              : Advanced Video Codec
Format profile                           : Main@L3
Format settings, CABAC                   : Yes
Format settings, ReFrames                : 2 frames
Format settings, GOP                     : M=1, N=12
Codec ID                                 : V_MPEG4/ISO/AVC
Duration                                 : 1 h 30 min
Bit rate mode                            : Constant
Bit rate                                 : 845 kb/s
Width                                    : 720 pixels
Height                                   : 304 pixels
Display aspect ratio                     : 2.35:1
Frame rate mode                          : Constant
Frame rate                               : 23.976 (24000/1001) FPS
Color space                              : YUV
Chroma subsampling                       : 4:2:0
Bit depth                                : 8 bits
Scan type                                : Progressive
Bits/(Pixel*Frame)                       : 0.161
Stream size                              : 531 MiB (63%)
Title                                    : ☻rDX☻
Default                                  : Yes
Forced                                   : No

Audio
ID                                       : 1
Format                                   : AC-3
Format/Info                              : Audio Coding 3
Mode extension                           : CM (complete main)
Format settings, Endianness              : Big
Codec ID                                 : A_AC3
Duration                                 : 1 h 30 min
Bit rate mode                            : Constant
Bit rate                                 : 448 kb/s
Channel(s)                               : 6 channels
Channel positions                        : Front: L C R, Side: L R, LFE
Sampling rate                            : 48.0 kHz
Frame rate                               : 31.250 FPS (1536 spf)
Bit depth                                : 16 bits
Compression mode                         : Lossy
Stream size                              : 291 MiB (35%)
Title                                    : ☻rDX☻
Language                                 : English
Default                                  : Yes
Forced                                   : No


Sharing Widget

To share this torrent inserting the provided BBCode into comments, status messages, forum posts or your signature.