A Thought Of Ecstasy 2018 UNCENSORED Movies BRRip x264 5 1 with Sample ☻rDX☻

seeders: 4 leechers: 0 updated: 8 hours ago
Added on by teamrDX 12,340 in Movies > Other
Torrent verified. Downloaded 23 times.
Infohash bfc03447a1f8c8ba172f6a36f0e2b9971542f529
0
0
Cover
A Thought of Ecstasy (2017)
Runtime 90 min

Video Blu-ray — — x264
Audio English

Directed by Rolf Peter Kahl
Written by Rolf Peter Kahl, Torsten Neumann

Genres Romance, Thriller

Love is immortal. Seduction is inevitable. Revenge is irresistible.

Also available as: Blu-ray Web-DL Web-Rip Cam x264

Description

18+ A Thought Of Ecstasy 2018 UNCENSORED Movies BRRip x264 5.1 with Sample ☻rDX☻

Screen Shots

https://iphonehosting.eu/2018/8/calling/1.html
https://iphonehosting.eu/2018/8/calling/2.html
https://iphonehosting.eu/2018/8/calling/3.html
https://iphonehosting.eu/2018/8/calling/4.html
https://iphonehosting.eu/2018/8/calling/5.html


File size                                : 838 MiB
Duration                                 : 1 h 29 min
Overall bit rate mode                    : Constant
Overall bit rate                         : 1 316 kb/s
Movie name                               : 18+ A Thought Of Ecstasy 2018 UNCENSORED Movies BRRip x264 5.1 ☻rDX☻

Video
ID                                       : 2
Format                                   : AVC
Format/Info                              : Advanced Video Codec
Format profile                           : Main@L3
Format settings, CABAC                   : Yes
Format settings, ReFrames                : 2 frames
Format settings, GOP                     : M=1, N=12
Codec ID                                 : V_MPEG4/ISO/AVC
Duration                                 : 1 h 29 min
Bit rate mode                            : Constant
Bit rate                                 : 933 kb/s
Width                                    : 720 pixels
Height                                   : 400 pixels
Display aspect ratio                     : 16:9
Frame rate mode                          : Constant
Frame rate                               : 24.000 FPS
Color space                              : YUV
Chroma subsampling                       : 4:2:0
Bit depth                                : 8 bits
Scan type                                : Progressive
Bits/(Pixel*Frame)                       : 0.135
Stream size                              : 577 MiB (69%)
Title                                    : ☻rDX☻
Default                                  : Yes
Forced                                   : No

Audio
ID                                       : 1
Format                                   : AC-3
Format/Info                              : Audio Coding 3
Mode extension                           : CM (complete main)
Format settings, Endianness              : Big
Codec ID                                 : A_AC3
Duration                                 : 1 h 29 min
Bit rate mode                            : Constant
Bit rate                                 : 384 kb/s
Channel(s)                               : 6 channels
Channel positions                        : Front: L C R, Side: L R, LFE
Sampling rate                            : 48.0 kHz
Frame rate                               : 31.250 FPS (1536 spf)
Bit depth                                : 16 bits
Compression mode                         : Lossy
Stream size                              : 245 MiB (29%)
Title                                    : ☻rDX☻
Default                                  : Yes
Forced                                   : No


Sharing Widget

To share this torrent inserting the provided BBCode into comments, status messages, forum posts or your signature.