Sins Hot Adult UNCENSORED Indian English Movies 720p BluRay x264 5 1 with Sample ☻rDX☻

seeders: 1 leechers: 2 updated: 4 days ago
Added on by teamrDX 12,340 in Movies > HD
Torrent verified. Downloaded 190 times.
Infohash 84f228cf1f05c38aa75b7385720bee66b878560a
0
0

Description

--18+ Sins Hot Adult UNCENSORED Indian English Movies 720p BluRay x264 5.1 with Sample ☻rDX☻

Screen Shots

https://iphonehosting.eu/2018/12/tshirt/1.html
https://iphonehosting.eu/2018/12/tshirt/2.html
https://iphonehosting.eu/2018/12/tshirt/3.html
https://iphonehosting.eu/2018/12/tshirt/4.html
https://iphonehosting.eu/2018/12/tshirt/5.html


File size                                : 958 MiB
Duration                                 : 2 h 14 min
Overall bit rate                         : 995 kb/s
Movie name                               : 18+ Sins Hot Adult UNCENSORED Indian English Movies 720p BluRay x264 5.1 ☻rDX☻

Video
ID                                       : 2
Format                                   : AVC
Format/Info                              : Advanced Video Codec
Format profile                           : Main@L3.1
Format settings, CABAC                   : Yes
Format settings, ReFrames                : 3 frames
Codec ID                                 : V_MPEG4/ISO/AVC
Duration                                 : 2 h 14 min
Bit rate                                 : 591 kb/s
Width                                    : 1 280 pixels
Height                                   : 720 pixels
Display aspect ratio                     : 16:9
Frame rate mode                          : Constant
Frame rate                               : 29.970 (30000/1001) FPS
Color space                              : YUV
Chroma subsampling                       : 4:2:0
Bit depth                                : 8 bits
Scan type                                : Progressive
Bits/(Pixel*Frame)                       : 0.021
Stream size                              : 569 MiB (59%)
Title                                    : ☻rDX☻
Default                                  : Yes
Forced                                   : No
Color range                              : Limited
Color primaries                          : BT.709
Transfer characteristics                 : BT.709
Matrix coefficients                      : BT.709

Audio
ID                                       : 1
Format                                   : AC-3
Format/Info                              : Audio Coding 3
Mode extension                           : CM (complete main)
Format settings, Endianness              : Big
Codec ID                                 : A_AC3
Duration                                 : 2 h 14 min
Bit rate mode                            : Constant
Bit rate                                 : 384 kb/s
Channel(s)                               : 6 channels
Channel positions                        : Front: L C R, Side: L R, LFE
Sampling rate                            : 44.1 kHz
Frame rate                               : 28.711 FPS (1536 spf)
Bit depth                                : 16 bits
Compression mode                         : Lossy
Stream size                              : 370 MiB (39%)
Title                                    : ☻rDX☻
Default                                  : Yes
Forced                                   : No


Sharing Widget

To share this torrent inserting the provided BBCode into comments, status messages, forum posts or your signature.