Halloween (2018) x 1616 (2160p) HDR 5 1 x265 10bit Phun Psyz

seeders: 5 leechers: 4 updated:
Added by phunpsyz 12.3K in Movies > UltraHD
Torrent verified. Downloaded 81 times.
Infohash F555249A29DF3698B5598B7EFC2CA74C87E7559D
0
0
Cover
Halloween (2018)
Runtime 106 min

Video Other — 4K — x265
Audio English

Directed by David Gordon Green
Written by Jeff Fradley, Danny McBride, David Gordon Green, John Carpenter (characters), Debra Hill (characters)

Genres Horror, Thriller

Laurie Strode confronts her long-time foe Michael Myers, the masked figure who has haunted her since she narrowly escaped his killing spree on Halloween night four decades ago.

Also available as: Blu-ray DVD Web-DL

Description

http://www.imdb.com/title/tt1502407/

Laurie Strode confronts her long-time foe Michael Myers, the masked figure who has haunted her since she narrowly escaped his killing spree on Halloween night four decades ago.

Source: FGT 4K HDR Remux







Format                      : Matroska
Format version              : Version 4 / Version 2
File size                   : 2.71 GiB
Duration                    : 1 h 45 min
Overall bit rate            : 3 669 kb/s

Video
ID                          : 1
Format                      : HEVC
Format/Info                 : High Efficiency Video Coding
Format profile              : Main 10@L5@High
Codec ID                    : V_MPEGH/ISO/HEVC
Duration                    : 1 h 45 min
Bit rate                    : 3 276 kb/s
Width                       : 3 840 pixels
Height                      : 1 616 pixels
Display aspect ratio        : 2.40:1
Frame rate mode             : Constant
Frame rate                  : 23.976 (24000/1001) FPS
Color space                 : YUV
Chroma subsampling          : 4:2:0
Bit depth                   : 10 bits
Bits/(Pixel*Frame)          : 0.022
Stream size                 : 2.42 GiB (89%)

Audio
ID                          : 2
Format                      : AC-3
Format/Info                 : Audio Coding 3
Commercial name             : Dolby Digital
Codec ID                    : A_AC3
Duration                    : 1 h 45 min
Bit rate mode               : Constant
Bit rate                    : 320 kb/s
Channel(s)                  : 6 channels
Channel layout              : L R C LFE Ls Rs
Sampling rate               : 48.0 kHz
Frame rate                  : 31.250 FPS (1536 SPF)
Bit depth                   : 16 bits
Compression mode            : Lossy
Stream size                 : 242 MiB (9%)
Title                       : Surround
Language                    : English

Text
Language                    : English
Language                    : English
Language                    : Spanish
Language                    : French
Language                    : Spanish
Language                    : French
Default                     : No
Forced                      : No

Torrent name Size Files Age Seed Leech
1.69 GB 1 16 days ago 6 6
828.23 MB 5 2 months ago 3 0

Sharing Widget

To share this torrent inserting the provided BBCode into comments, status messages, forum posts or your signature.