Halloween (2018) x 1616 (2160p) HDR 5 1 x265 10bit Phun Psyz

seeders: 7 leechers: 2 updated: unknown
Added on by phunpsyz 2,770 in Movies > UltraHD
Torrent verified. Downloaded 325 times.
Infohash f555249a29df3698b5598b7efc2ca74c87e7559d
0
0
Halloween (2018) R
Runtime 106 min

Video — 4K — x265
Audio English

Directed by David Gordon Green
Written by John Carpenter (based on characters created by), Debra Hill (based on characters created by), Jeff Fradley, Danny McBride, David Gordon Green

Genres Horror, Thriller

Laurie Strode confronts her long-time foe Michael Myers, the masked figure who has haunted her since she narrowly escaped his killing spree on Halloween night four decades ago.

Also available as: 4K x265 x264

Description

http://www.imdb.com/title/tt1502407/

Laurie Strode confronts her long-time foe Michael Myers, the masked figure who has haunted her since she narrowly escaped his killing spree on Halloween night four decades ago.

Source: FGT 4K HDR Remux







Format                      : Matroska
Format version              : Version 4 / Version 2
File size                   : 2.71 GiB
Duration                    : 1 h 45 min
Overall bit rate            : 3 669 kb/s

Video
ID                          : 1
Format                      : HEVC
Format/Info                 : High Efficiency Video Coding
Format profile              : Main 10@L5@High
Codec ID                    : V_MPEGH/ISO/HEVC
Duration                    : 1 h 45 min
Bit rate                    : 3 276 kb/s
Width                       : 3 840 pixels
Height                      : 1 616 pixels
Display aspect ratio        : 2.40:1
Frame rate mode             : Constant
Frame rate                  : 23.976 (24000/1001) FPS
Color space                 : YUV
Chroma subsampling          : 4:2:0
Bit depth                   : 10 bits
Bits/(Pixel*Frame)          : 0.022
Stream size                 : 2.42 GiB (89%)

Audio
ID                          : 2
Format                      : AC-3
Format/Info                 : Audio Coding 3
Commercial name             : Dolby Digital
Codec ID                    : A_AC3
Duration                    : 1 h 45 min
Bit rate mode               : Constant
Bit rate                    : 320 kb/s
Channel(s)                  : 6 channels
Channel layout              : L R C LFE Ls Rs
Sampling rate               : 48.0 kHz
Frame rate                  : 31.250 FPS (1536 SPF)
Bit depth                   : 16 bits
Compression mode            : Lossy
Stream size                 : 242 MiB (9%)
Title                       : Surround
Language                    : English

Text
Language                    : English
Language                    : English
Language                    : Spanish
Language                    : French
Language                    : Spanish
Language                    : French
Default                     : No
Forced                      : No

Torrent name Size Files Age Seed Leech
2.11 GB11 month ago102
1.69 GB13 months ago10
828.23 MB54 months ago20

Sharing Widget

To share this torrent inserting the provided BBCode into comments, status messages, forum posts or your signature.