Baazaar (2018) Hindi HDRip 720p x264 DD5 1 (224Kbps) 1 4GB ESub [MOVCR] mkv

seeders: 9 leechers: 0 updated:
Added by Tamilgun 12.3K in Movies > Asian/Bollywood
Torrent verified. Downloaded 16 times.
Infohash 1DBC6B2156D251A5DD6A7017D6E8E4CB813B1420
0
0

Description

--


Video
ID                          : 1
Format                      : AVC
Format/Info                 : Advanced Video Codec
Format profile              : High@L3.2
Format settings             : CABAC / 4 Ref Frames
Format settings, CABAC      : Yes
Format settings, ReFrames   : 4 frames
Codec ID                    : V_MPEG4/ISO/AVC
Duration                    : 2 h 16 min
Bit rate                    : 1 209 kb/s
Width                       : 1 280 pixels
Height                      : 544 pixels
Display aspect ratio        : 2.35:1
Frame rate mode             : Constant
Frame rate                  : 24.000 FPS
Color space                 : YUV
Audio
ID                          : 2
Format                      : AC-3
Format/Info                 : Audio Coding 3
Codec ID                    : A_AC3
Duration                    : 2 h 16 min
Bit rate mode               : Constant
Bit rate                    : 224 kb/s
Channel(s)                  : 6 channels
Channel positions           : Front: L C R, Side: L R, LFE
Sampling rate               : 48.0 kHz
Frame rate                  : 31.250 FPS (1536 SPF)
Bit depth                   : 16 bits
Compression mode            : Lossy
Stream size                 : 219 MiB (16%)
Title                       :
Language                    : Hindi
Service kind                : Complete Main
Default                     : Yes
Forced                      : Yes

Text
ID                          : 3
Format                      : UTF-8
Codec ID                    : S_TEXT/UTF8
Codec ID/Info               : UTF-8 Plain Text
Duration                    : 2 h 11 min
Bit rate                    : 66 b/s
Count of elements           : 1563
Stream size                 : 64.6 KiB (0%)
Title                       :
Language                    : English
Default                     : Yes
Forced                      : Yes

Torrent name Size Files Age Seed Leech
1.08 GB 1 9 days ago 5 1
982.34 MB 1 11 days ago 4 0
1.05 GB 5 11 days ago 55 7

Sharing Widget

To share this torrent inserting the provided BBCode into comments, status messages, forum posts or your signature.