Prospect 2019 HDRip XviD AC3 LLG

seeders: 2 leechers: 0 updated: 3 hours ago
Added on by LifeLong1 2,094 in Movies > Other
Torrent verified. Downloaded 986 times.
Infohash 5cf2f1d98738057b496e6b9e93a9b3b2094c218b
0
0
Cover
Prospect (2018) R
Runtime 100 min

Video Other — Other — Unknown
Audio English

Directed by Christopher Caldwell, Zeek Earl
Written by Christopher Caldwell, Zeek Earl

Genres Drama, Sci-Fi, Thriller

A teenage girl and her father travel to a remote alien moon, aiming to strike it rich. They've secured a contract to harvest a large deposit of the elusive gems hidden in the depths of the moon's toxic forest. But there are others roving the wilderness and the job quickly devolves into a fight to survive. Forced to contend not only with the forest's other ruthless inhabitants, but with her own ...

Also available as:
  • Prospect.2019.HDRip.XviD.AC3.LLG (Size: 1.12 GB)
      • SAMPLE.ts
      5.47 MB
      • Prospect.2019.HDRip.XviD.AC3.LLG.mp4
      1.11 GB
    • Files view Limit 50 — Current Torrent have 2 files

Description

Quote



******************************Thumbnail:**********************



******************************Screenshots:********************

Screenshot 1

Screenshot 2

Screenshot 3

Screenshot 4

Screenshot 5

******************************************************

Prospect.2019.HDRip.XviD.AC3.LLG.mp4
Format                                   : MPEG-4
Format profile                           : Base Media
Codec ID                                 : isom (isom/iso2/avc1/mp41)
File size                                : 1.11 GiB
Duration                                 : 1 h 39 min
Overall bit rate mode                    : Variable
Overall bit rate                         : 1 597 kb/s


Video
ID                                       : 1
Format                                   : AVC
Format/Info                              : Advanced Video Codec
Format profile                           : Main@L3
Format settings                          : CABAC / 1 Ref Frames
Format settings, CABAC                   : Yes
Format settings, RefFrames               : 1 frame
Codec ID                                 : avc1
Codec ID/Info                            : Advanced Video Coding
Duration                                 : 1 h 39 min
Bit rate mode                            : Variable
Bit rate                                 : 1 209 kb/s
Maximum bit rate                         : 3 600 kb/s
Width                                    : 720 pixels
Height                                   : 384 pixels
Display aspect ratio                     : 1.85:1
Frame rate mode                          : Constant
Frame rate                               : 24.000 FPS
Color space                              : YUV
Chroma subsampling                       : 4:2:0
Bit depth                                : 8 bits
Scan type                                : Progressive
Bits/(Pixel*Frame)                       : 0.182
Stream size                              : 863 MiB (76%)


Audio
ID                                       : 2
Format                                   : AC-3
Format/Info                              : Audio Coding 3
Commercial name                          : Dolby Digital
Codec ID                                 : ac-3
Duration                                 : 1 h 39 min
Bit rate mode                            : Constant
Bit rate                                 : 384 kb/s
Channel(s)                               : 6 channels
Channel layout                           : L R C LFE Ls Rs
Sampling rate                            : 48.0 kHz
Frame rate                               : 31.250 FPS (1536 SPF)
Bit depth                                : 16 bits
Compression mode                         : Lossy
Stream size                              : 274 MiB (24%)
Title                                    : Surround
Language                                 : English
Service kind                             : Complete Main
Default                                  : Yes
Alternate group                          : 1



********************************************************




Sharing Widget

To share this torrent inserting the provided BBCode into comments, status messages, forum posts or your signature.