Destroyer 2019 DVDSCR XviD B4ND1T69

seeders: 10 leechers: 0 updated: unknown
Added on by B4ND1T69 718 in Movies > Screener
Torrent verified. Downloaded 61 times.
Infohash 007b7a6411f8f4e0046fbd6762c1ca50812a8a86
0
0
Cover
Destroyer (2018) R
Runtime 121 min

Video Other — Other — Unknown
Audio English

Directed by Karyn Kusama
Written by Phil Hay (screenplay), Matt Manfredi (screenplay)

Genres Action, Crime, Drama, Mystery, Thriller

A police detective reconnects with people from an undercover assignment in her distant past in order to make peace.

Also available as:
  • Destroyer.2019.DVDSCR.XviD.B4ND1T69 (Size: 768.77 MB)
      • 1337x text file.txt
      61.00 B
      • Downloaded from katcr.txt
      139.00 B
      • Destroyer.2019.DVDSCR.XviD.B4ND1T69.avi
      768.77 MB
    • Files view Limit 50 — Current Torrent have 3 files

Description

Destroyer.2019.DVDSCR.XviD.B4ND1T69



Director: Karyn Kusama
Writers: Phil Hay (screenplay), Matt Manfredi (screenplay)
Stars: Nicole Kidman, Toby Kebbell, Tatiana Maslany

Plot/Story:
Destroyer follows the moral and existential odyssey of LAPD detective Erin Bell who, as a young cop, was placed undercover with a gang in the California desert with tragic results. When the leader of that gang re-emerges many years later, she must work her way back through the remaining members and into her own history with them to finally reckon with the demons that destroyed her past.

General
Complete name               : Destroyer.2019.DVDSCR.XviD.B4ND1T69.avi
Format                      : AVI
Format/Info                 : Audio Video Interleave
File size                   : 769 MiB
Duration                    : 2 h 0 min
Overall bit rate            : 891 kb/s
Writing application         : Lavf54.63.104
Subtitles                   : NA
Source                      : EVO...thanks.

Video
ID                          : 0
Format                      : MPEG-4 Visual
Format profile              : Advanced Simple@L4
Format settings, BVOP       : 2
Format settings, QPel       : No
Format settings, GMC        : No warppoints
Format settings, Matrix     : Default (H.263)
Codec ID                    : XVID
Codec ID/Hint               : XviD
Duration                    : 2 h 0 min
Bit rate                    : 750 kb/s
Width                       : 688 pixels
Height                      : 288 pixels
Display aspect ratio        : 2.40:1
Frame rate                  : 23.976 (24000/1001) FPS
Color space                 : YUV
Chroma subsampling          : 4:2:0
Bit depth                   : 8 bits
Scan type                   : Progressive
Compression mode            : Lossy
Bits/(Pixel*Frame)          : 0.158
Stream size                 : 647 MiB (84%)
Writing library             : XviD 64

Audio
ID                          : 1
Format                      : MPEG Audio
Format version              : Version 1
Format profile              : Layer 3
Codec ID                    : 55
Codec ID/Hint               : MP3
Duration                    : 2 h 0 min
Bit rate mode               : Constant
Bit rate                    : 128 kb/s
Channel(s)                  : 2 channels
Sampling rate               : 48.0 kHz
Compression mode            : Lossy
Stream size                 : 110 MiB (14%)
Alignment                   : Aligned on interleaves
Interleave, duration        : 24  ms (0.58 video frame)

Screenshots:










Please Seed For As Long As Possible
Or At Least 1:1 Ratio...Thanks
Enjoy Peeps

Torrent name Size Files Age Seed Leech
706.02 MB22 days ago51
1.60 GB39 days ago37739

Sharing Widget

To share this torrent inserting the provided BBCode into comments, status messages, forum posts or your signature.