The Axiom 2019 HDRip XviD AC3 LLG 18+

seeders: 0 leechers: 0 updated: 2 days ago
Added on by LifeLong1 2,094 in Movies > Other
Torrent verified. Downloaded 0 times.
Infohash c2191484f3f0e6e877324f3a4ed5568c586edc51
0
0
Cover
The Axiom (2018)
Runtime 98 min

Video Other — Other — Xvid
Audio English

Directed by Nicholas Woods
Written by Nicholas Woods

Genres Horror

At the risk of her group's safety, a young woman travels into a National Forest where her sister has become trapped in a multi-dimensional world of monsters.

Also available as: Xvid

Description

Quote



******************************Thumbnail:**********************



******************************Screenshots:********************

Screenshot 1

Screenshot 2

Screenshot 3

Screenshot 4

Screenshot 5

******************************************************

18+.The.Axiom.2019.HDRip.XviD.AC3.LLG.mp4
Format                                   : MPEG-4
Format profile                           : Base Media
Codec ID                                 : isom (isom/iso2/avc1/mp41)
File size                                : 1.09 GiB
Duration                                 : 1 h 38 min
Overall bit rate mode                    : Variable
Overall bit rate                         : 1 578 kb/s
Writing application                      : Lavf57.83.100

Video
ID                                       : 1
Format                                   : AVC
Format/Info                              : Advanced Video Codec
Format profile                           : Main@L3
Format settings                          : CABAC / 1 Ref Frames
Format settings, CABAC                   : Yes
Format settings, RefFrames               : 1 frame
Codec ID                                 : avc1
Codec ID/Info                            : Advanced Video Coding
Duration                                 : 1 h 38 min
Bit rate mode                            : Variable
Bit rate                                 : 1 191 kb/s
Maximum bit rate                         : 3 600 kb/s
Width                                    : 720 pixels
Height                                   : 304 pixels
Display aspect ratio                     : 2.35:1
Frame rate mode                          : Constant
Frame rate                               : 23.976 (23976/1000) FPS
Color space                              : YUV
Chroma subsampling                       : 4:2:0
Bit depth                                : 8 bits
Scan type                                : Progressive
Bits/(Pixel*Frame)                       : 0.227
Stream size                              : 841 MiB (75%)
Codec configuration box                  : avcC

Audio
ID                                       : 2
Format                                   : AC-3
Format/Info                              : Audio Coding 3
Commercial name                          : Dolby Digital
Codec ID                                 : ac-3
Duration                                 : 1 h 38 min
Bit rate mode                            : Constant
Bit rate                                 : 384 kb/s
Channel(s)                               : 6 channels
Channel layout                           : L R C LFE Ls Rs
Sampling rate                            : 48.0 kHz
Frame rate                               : 31.250 FPS (1536 SPF)
Bit depth                                : 16 bits
Compression mode                         : Lossy
Stream size                              : 271 MiB (24%)
Service kind                             : Complete Main
Default                                  : Yes
Alternate group                          : 1




********************************************************




Sharing Widget

To share this torrent inserting the provided BBCode into comments, status messages, forum posts or your signature.