Alita Battle Angel 2019 720p HDCAM LLG

seeders: 16 leechers: 5 updated: unknown
Added on by LifeLong1 1,968 in Movies > Cam
Torrent verified. Downloaded 318 times.
Infohash 28e794393a98e4b4ef5fbe47a4aad2244eacca93
0
0
Cover
Alita: Battle Angel (2019) PG-13
Runtime 122 min

Video Other — 720p — Unknown
Audio English

Directed by Robert Rodriguez
Written by James Cameron (screenplay by), Laeta Kalogridis (screenplay by), Robert Rodriguez (screenplay by), Yukito Kishiro (based on the graphic novel series "Gunnm" by)

Genres Action, Adventure, Romance, Sci-Fi, Thriller

An action-packed story of one young woman's journey to discover the truth of who she is and her fight to change the world.

Also available as: 720p

Description

Content temp disabled.
Quote



******************************Thumbnail:**********************



******************************Screenshots:********************

Screenshot 1

Screenshot 2

Screenshot 3

Screenshot 4

Screenshot 5

******************************************************

Alita.Battle.Angel.2019.720p.HDCAM.LLG.mp4
Format                                   : MPEG-4
Format profile                           : Base Media
Codec ID                                 : isom (isom/iso2/avc1/mp41)
File size                                : 1.36 GiB
Duration                                 : 1 h 59 min
Overall bit rate mode                    : Variable
Overall bit rate                         : 1 633 kb/s


Video
ID                                       : 1
Format                                   : AVC
Format/Info                              : Advanced Video Codec
Format profile                           : Main@L3.1
Format settings                          : CABAC / 1 Ref Frames
Format settings, CABAC                   : Yes
Format settings, RefFrames               : 1 frame
Codec ID                                 : avc1
Codec ID/Info                            : Advanced Video Coding
Duration                                 : 1 h 59 min
Bit rate mode                            : Variable
Bit rate                                 : 1 497 kb/s
Maximum bit rate                         : 4 500 kb/s
Width                                    : 1 280 pixels
Height                                   : 536 pixels
Display aspect ratio                     : 2.40:1
Frame rate mode                          : Constant
Frame rate                               : 29.970 (29970/1000) FPS
Original frame rate                      : 29.970 (30000/1001) FPS
Color space                              : YUV
Chroma subsampling                       : 4:2:0
Bit depth                                : 8 bits
Scan type                                : Progressive
Bits/(Pixel*Frame)                       : 0.073
Stream size                              : 1.25 GiB (92%)

Audio
ID                                       : 2
Format                                   : AAC LC
Format/Info                              : Advanced Audio Codec Low Complexity
Codec ID                                 : mp4a-40-2
Duration                                 : 1 h 59 min
Bit rate mode                            : Constant
Bit rate                                 : 129 kb/s
Channel(s)                               : 2 channels
Channel layout                           : L R
Sampling rate                            : 48.0 kHz
Frame rate                               : 46.875 FPS (1024 SPF)
Compression mode                         : Lossy
Stream size                              : 110 MiB (8%)
Default                                  : Yes




********************************************************



Content temp disabled.

Sharing Widget

To share this torrent inserting the provided BBCode into comments, status messages, forum posts or your signature.